vecchietto ha segnalato un messaggio.

Motivo:
link off

Messaggio: Cena Con Delitto - Knives Out (2019) .mkv iTA-ENG Bluray 1080p HEVC x265 CYBER
Forum: HEVC 1080p x265
Moderatori Assegnati: @N/D

Scritto da: CYBER
Contenuto Originale:

Cena con Delitto - Knives Out
(Knives Out)


Cena Con Delitto - Knives Out (2019) .mkv iTA-ENG Bluray 1080p HEVC x265 CYBER



Data di uscita: 05 dicembre 2019
Genere: Thriller, Giallo
Anno: 2019
Regia: Rian Johnson
Attori: Daniel Craig, Chris Evans, Ana de Armas, Jamie Lee Curtis, Toni Collette, Don Johnson, Michael Shannon, Lakeith Stanfield, Katherine Langford, Noah Segan, Edi Patterson, Riki Lindhome, Christopher Plummer
Paese: USA
Durata: 130 min
Distribuzione: 01 Distribution


Quando il noto scrittore di gialli Harlan Thrombey viene trovato morto nella sua tenuta poco dopo il suo 85° compleanno, il detective Benoit Blanc, curioso e disinvolto, viene misteriosamente reclutato per investigare sull'accaduto. Dalla disfunzionale famiglia della vittima al suo devoto entourage, Blanc si muove attraverso una fitta rete di bugie, segreti e non detti, per scoprire quale sia la verità dietro la prematura morte dell'autore.






Cena Con Delitto - Knives Out (2019) .mkv iTA-ENG Bluray 1080p HEVC x265 CYBER
Nome Versione: CYBER
Fonte Video: Bluray
Fonte Audio: Bluray
Tracce Audio: DTS/AC3 iTA | DTS ENG
Sub Forced: Si
 


---[Information] [04/03/2020 16:25:43] x265 [info]: frame I: 1801, Avg QP:18.44 kb/s: 41335.90
---[Information] [04/03/2020 16:25:43] x265 [info]: frame P: 40137, Avg QP:20.98 kb/s: 18999.14
---[Information] [04/03/2020 16:25:43] x265 [info]: frame B: 145406, Avg QP:25.06 kb/s: 5230.23
---[Information] [04/03/2020 16:25:43] x265 [info]: Weighted P-Frames: Y:2.5% UV:2.0%
---[Information] [04/03/2020 16:25:43] x265 [info]: consecutive B-frames: 6.0% 2.1% 5.7% 11.5% 74.7%
---[Information] [04/03/2020 16:25:43] encoded 187344 frames in 13250.38s (14.14 fps), 8527.21 kb/s, Avg QP:24.12

General
Unique ID : 195239998758912873413207458137852304113 (0x92E1DB228039E9E45234CB4D00675AF1)
Complete name : F:\Cena.Con.Delitto.Knives.Out.2019.iTA-ENG.Bluray.1080p.x265-CYBER.mkv
Format : Matroska
Format version : Version 2
File size : 10.3 GiB
Duration : 2 h 10 min
Overall bit rate : 11.3 Mb/s
Movie name : Knives Out 4K
Encoded date : UTC 2020-03-05 19:42:40
Writing application : mkvmerge v33.1.0 ('Primrose') 64-bit
Writing library : libebml v1.3.7 + libmatroska v1.5.0

Video
ID : 1
Format : HEVC
Format/Info : High Efficiency Video Coding
Format profile : [email protected]@Main
Codec ID : V_MPEGH/ISO/HEVC
Duration : 2 h 10 min
Bit rate : 8 528 kb/s
Width : 1 920 pixels
Height : 1 036 pixels
Display aspect ratio : 1.85:1
Frame rate mode : Constant
Frame rate : 23.976 (24000/1001) FPS
Color space : YUV
Chroma subsampling : 4:2:0
Bit depth : 8 bits
Bits/(Pixel*Frame) : 0.179
Stream size : 7.76 GiB (75%)
Writing library : x265 3.0_Au+4-dcbec33bfb0f:[Win][GCC][64][C|Y|B|E|R] 8bit+10bit+12bit
Encoding settings : cpuid=1111039 / frame-threads=3 / numa-pools=8 / wpp / no-pmode / no-pme / no-psnr / no-ssim / log-level=2 / input-csp=1 / input-res=1920x1036 / interlace=0 / total-frames=187344 / level-idc=0 / high-tier=1 / uhd-bd=0 / ref=5 / no-allow-non-conformance / no-repeat-headers / annexb / no-aud / no-hrd / info / hash=0 / no-temporal-layers / no-open-gop / min-keyint=23 / keyint=250 / gop-lookahead=0 / bframes=4 / b-adapt=2 / b-pyramid / bframe-bias=0 / rc-lookahead=20 / lookahead-slices=6 / scenecut=40 / radl=0 / no-splice / no-intra-refresh / ctu=64 / min-cu-size=8 / no-rect / no-amp / max-tu-size=32 / tu-inter-depth=1 / tu-intra-depth=1 / limit-tu=0 / rdoq-level=0 / dynamic-rd=0.00 / no-ssim-rd / signhide / no-tskip / nr-intra=0 / nr-inter=0 / no-constrained-intra / strong-intra-smoothing / max-merge=2 / limit-refs=3 / no-limit-modes / me=1 / subme=2 / merange=57 / temporal-mvp / weightp / no-weightb / no-analyze-src-pics / deblock=-2:-2 / sao / no-sao-non-deblock / rd=3 / no-early-skip / rskip / no-fast-intra / no-tskip-fast / no-cu-lossless / no-b-intra / no-splitrd-skip / rdpenalty=0 / psy-rd=2.00 / psy-rdoq=0.00 / no-rd-refine / no-lossless / cbqpoffs=0 / crqpoffs=0 / rc=abr / bitrate=8526 / qcomp=0.60 / qpstep=4 / stats-write=0 / stats-read=2 / cplxblur=20.0 / qblur=0.5 / ipratio=1.40 / pbratio=1.30 / aq-mode=2 / aq-strength=1.00 / cutree / zone-count=0 / no-strict-cbr / qg-size=32 / no-rc-grain / qpmax=69 / qpmin=0 / no-const-vbv / sar=1 / overscan=0 / videoformat=5 / range=0 / colorprim=2 / transfer=2 / colormatrix=2 / chromaloc=0 / display-window=0 / max-cll=0,0 / min-luma=0 / max-luma=255 / log2-max-poc-lsb=8 / vui-timing-info / vui-hrd-info / slices=1 / no-opt-qp-pps / no-opt-ref-list-length-pps / no-multi-pass-opt-rps / scenecut-bias=0.05 / no-opt-cu-delta-qp / no-aq-motion / no-hdr / no-hdr-opt / no-dhdr10-opt / no-idr-recovery-sei / analysis-reuse-level=5 / scale-factor=0 / refine-intra=0 / refine-inter=0 / refine-mv=0 / refine-ctu-distortion=0 / no-limit-sao / ctu-info=0 / no-lowpass-dct / refine-analysis-type=0 / copy-pic=1 / max-ausize-factor=1.0 / no-dynamic-refine / no-single-sei / no-hevc-aq / qp-adaptation-range=1.00
Language : English
Default : Yes
Forced : No

Audio #1
ID : 2
Format : DTS
Format/Info : Digital Theater Systems
Codec ID : A_DTS
Duration : 2 h 10 min
Bit rate mode : Constant
Bit rate : 1 509 kb/s
Channel(s) : 6 channels
Channel layout : C L R Ls Rs LFE
Sampling rate : 48.0 kHz
Frame rate : 93.750 FPS (512 SPF)
Bit depth : 24 bits
Compression mode : Lossy
Stream size : 1.38 GiB (13%)
Language : Italian
Default : Yes
Forced : No

Audio #2
ID : 3
Format : AC-3
Format/Info : Audio Coding 3
Commercial name : Dolby Digital
Codec ID : A_AC3
Duration : 2 h 10 min
Bit rate mode : Constant
Bit rate : 640 kb/s
Channel(s) : 6 channels
Channel layout : L R C LFE Ls Rs
Sampling rate : 48.0 kHz
Frame rate : 31.250 FPS (1536 SPF)
Compression mode : Lossy
Stream size : 598 MiB (6%)
Language : Italian
Service kind : Complete Main
Default : No
Forced : No

Audio #3
ID : 4
Format : AC-3
Format/Info : Audio Coding 3
Commercial name : Dolby Digital
Codec ID : A_AC3
Duration : 2 h 10 min
Bit rate mode : Constant
Bit rate : 640 kb/s
Channel(s) : 6 channels
Channel layout : L R C LFE Ls Rs
Sampling rate : 48.0 kHz
Frame rate : 31.250 FPS (1536 SPF)
Compression mode : Lossy
Stream size : 596 MiB (6%)
Language : English
Service kind : Complete Main
Default : No
Forced : No

Text #1
ID : 5
Format : UTF-8
Codec ID : S_TEXT/UTF8
Codec ID/Info : UTF-8 Plain Text
Duration : 2 h 1 min
Bit rate : 0 b/s
Count of elements : 7
Stream size : 262 Bytes (0%)
Title : FORCED
Language : Italian
Default : Yes
Forced : No

Text #2
ID : 6
Format : UTF-8
Codec ID : S_TEXT/UTF8
Codec ID/Info : UTF-8 Plain Text
Duration : 2 h 2 min
Bit rate : 82 b/s
Count of elements : 2058
Stream size : 73.8 KiB (0%)
Title : REGOLARI
Language : Italian
Default : No
Forced : No

Text #3
ID : 7
Format : UTF-8
Codec ID : S_TEXT/UTF8
Codec ID/Info : UTF-8 Plain Text
Duration : 2 h 9 min
Bit rate : 94 b/s
Count of elements : 2542
Stream size : 90.0 KiB (0%)
Title : NON UDENTI
Language : English
Default : No
Forced : No

Menu
00:00:00.000 : en:Chapter 1
00:05:28.036 : en:Chapter 2
00:21:23.115 : en:Chapter 3
00:31:48.698 : en:Chapter 4
00:44:30.960 : en:Chapter 5
00:49:52.364 : en:Chapter 6
00:54:53.582 : en:Chapter 7
00:58:39.766 : en:Chapter 8
01:07:09.776 : en:Chapter 9
01:12:43.943 : en:Chapter 10
01:22:30.279 : en:Chapter 11
01:28:49.741 : en:Chapter 12
01:34:44.429 : en:Chapter 13
01:40:47.458 : en:Chapter 14
01:43:43.634 : en:Chapter 15
02:01:45.131 : en:Chapter 16





In caso di links off, mandare PM!

Contenitore di links, scarica il DLC (consigliato) o cattura su JDownloader
** Contenuto Nascosto: Schiaccia il bottone RINGRAZIA per visualizzare i link **



Contenitore di links, scarica il DLC (consigliato) o cattura su JDownloader
** Contenuto Nascosto: Schiaccia il bottone RINGRAZIA per visualizzare i link **


PASS: CTRL
SONO PRESENTI FILES .REV


Referral