Menarello ha segnalato un messaggio.

Motivo:
Alcuni link off line

Messaggio: Equilibrium (2002) FULL HD 1080p x265 HEVC DTS+AC3 ITA AC3 ENG
Forum: HEVC 1080p x265
Moderatori Assegnati: @N/D

Scritto da: COSMONAUTA
Contenuto Originale:



Scheda:
Titolo: Equilibrium
Titolo Originale: Equilibrium
Genere: Fantascienza , Thriller
Nazione: USA
Anno: 2002
Durata: 107 min
Regia: Kurt Wimmer
Cast: Christian Bale, Taye Diggs, Emily Watson, William Fichtner, Angus Macfadyen, Dominic Purcell, Sean Bean, Matthew Harbour, Emily Siewert, Anatole Taubman, Mike Smith, Maria Pia Calzone, David Hemmings, Sean Pertwee, Klaus Schindler, Kurt Wimmer, Christian Kahrmann, Daniel Lee, Mehmet Kurtulus, Alexa Summer, John Keogh, David Barrash, Dirk Martens, Florian Fitz, Francesco Cabras, Brian Connelly, Brian Cook, Oliver Brandl


Trama:
Il regime totalitario che regna in Libria è riuscito a eliminare le guerre nel mondo grazie al Prozium, una droga che altera la mente e inibisce ogni tipo di emozione. Libri, arte e musica sono severamente vietati e provare sentimenti è un crimine punibile con la morte, così come non assumere la dose quotidiana del medicinale. John Preston è un alto ufficiale del governo incaricato di scovare e distruggere i sovversivi, ma il giorno che salta la sua dose di Prozium, improvvisamente diventa l'unica persona in grado di abbattere il regime e abolire le rigide leggi imposte dal governo.

Screen:





Nome versione:THE KING
Fonte video: BDFULL
Fonte audio: BDFULL
Tracce Audio:AC3 ITA-ENG/DTS- ITA
Sottotitoli:ITA
FORCED




Info:
 

General
Unique ID : 254004292181345645783181629442381361171 (0xBF17727DC35FB59997805E91DEE0B013)
Complete name : D:\EQUILIBRIUM\HEVC\1080\Equilibrium (2002)-80 HEVC.mkv
Format : Matroska
Format version : Version 2
File size : 5.48 GiB
Duration : 1 h 46 min
Overall bit rate : 7 331 kb/s
Movie name : ******ENCODE BY THE KING******
Encoded date : UTC 2019-11-28 11:28:59
Writing application : mkvmerge v5.5.0 ('Healer') built on Apr 6 2012 21:43:24
Writing library : libebml v1.2.3 + libmatroska v1.3.0

Video
ID : 1
Format : HEVC
Format/Info : High Efficiency Video Coding
Format profile : [email protected]@Main
Codec ID : V_MPEGH/ISO/HEVC
Duration : 1 h 46 min
Bit rate : 5 137 kb/s
Width : 1 920 pixels
Height : 820 pixels
Display aspect ratio : 2.35:1
Frame rate mode : Constant
Frame rate : 24.000 FPS
Color space : YUV
Chroma subsampling : 4:2:0
Bit depth : 8 bits
Bits/(Pixel*Frame) : 0.136
Stream size : 3.84 GiB (70%)
Title : ******ENCODE BY THE KING******
Writing library : x265 3.0_Au+4-dcbec33bfb0f:[Win][GCC][64][THE*KING] 8bit+10bit+12bit
Encoding settings : cpuid=1111039 / frame-threads=3 / numa-pools=8 / wpp / no-pmode / no-pme / no-psnr / no-ssim / log-level=2 / input-csp=1 / input-res=1920x820 / interlace=0 / total-frames=154023 / level-idc=0 / high-tier=1 / uhd-bd=0 / ref=5 / no-allow-non-conformance / no-repeat-headers / annexb / no-aud / no-hrd / info / hash=0 / no-temporal-layers / no-open-gop / min-keyint=24 / keyint=250 / gop-lookahead=0 / bframes=4 / b-adapt=2 / b-pyramid / bframe-bias=0 / rc-lookahead=20 / lookahead-slices=5 / scenecut=40 / radl=0 / no-splice / no-intra-refresh / ctu=64 / min-cu-size=8 / no-rect / no-amp / max-tu-size=32 / tu-inter-depth=1 / tu-intra-depth=1 / limit-tu=0 / rdoq-level=0 / dynamic-rd=0.00 / no-ssim-rd / signhide / no-tskip / nr-intra=0 / nr-inter=0 / no-constrained-intra / strong-intra-smoothing / max-merge=2 / limit-refs=3 / no-limit-modes / me=1 / subme=2 / merange=57 / temporal-mvp / weightp / no-weightb / no-analyze-src-pics / deblock=-2:-2 / sao / no-sao-non-deblock / rd=3 / no-early-skip / rskip / no-fast-intra / no-tskip-fast / no-cu-lossless / no-b-intra / no-splitrd-skip / rdpenalty=0 / psy-rd=2.00 / psy-rdoq=0.00 / no-rd-refine / no-lossless / cbqpoffs=0 / crqpoffs=0 / rc=abr / bitrate=5286 / qcomp=0.60 / qpstep=4 / stats-write=0 / stats-read=2 / cplxblur=20.0 / qblur=0.5 / ipratio=1.40 / pbratio=1.30 / aq-mode=2 / aq-strength=1.00 / cutree / zone-count=0 / no-strict-cbr / qg-size=32 / no-rc-grain / qpmax=69 / qpmin=0 / no-const-vbv / sar=1 / overscan=0 / videoformat=5 / range=0 / colorprim=2 / transfer=2 / colormatrix=2 / chromaloc=0 / display-window=0 / max-cll=0,0 / min-luma=0 / max-luma=255 / log2-max-poc-lsb=8 / vui-timing-info / vui-hrd-info / slices=1 / no-opt-qp-pps / no-opt-ref-list-length-pps / no-multi-pass-opt-rps / scenecut-bias=0.05 / no-opt-cu-delta-qp / no-aq-motion / no-hdr / no-hdr-opt / no-dhdr10-opt / no-idr-recovery-sei / analysis-reuse-level=5 / scale-factor=0 / refine-intra=0 / refine-inter=0 / refine-mv=0 / refine-ctu-distortion=0 / no-limit-sao / ctu-info=0 / no-lowpass-dct / refine-analysis-type=0 / copy-pic=1 / max-ausize-factor=1.0 / no-dynamic-refine / no-single-sei / no-hevc-aq / qp-adaptation-range=1.00
Language : English
Default : Yes
Forced : No

Audio #1
ID : 2
Format : DTS
Format/Info : Digital Theater Systems
Muxing mode : Header stripping
Codec ID : A_DTS
Duration : 1 h 46 min
Bit rate mode : Constant
Bit rate : 768 kb/s
Channel(s) : 6 channels
Channel layout : C L R Ls Rs LFE
Sampling rate : 48.0 kHz
Frame rate : 93.750 FPS (512 SPF)
Bit depth : 24 bits
Compression mode : Lossy
Stream size : 588 MiB (10%)
Title : Dts Ita 5.1 Ch
Language : Italian
Default : No
Forced : No

Audio #2
ID : 3
Format : AC-3
Format/Info : Audio Coding 3
Commercial name : Dolby Digital
Muxing mode : Header stripping
Codec ID : A_AC3
Duration : 1 h 46 min
Bit rate mode : Constant
Bit rate : 640 kb/s
Channel(s) : 6 channels
Channel layout : L R C LFE Ls Rs
Sampling rate : 48.0 kHz
Frame rate : 31.250 FPS (1536 SPF)
Compression mode : Lossy
Stream size : 490 MiB (9%)
Title : AC3 Eng 5.1 Ch
Language : English
Service kind : Complete Main
Default : No
Forced : No

Audio #3
ID : 4
Format : AC-3
Format/Info : Audio Coding 3
Commercial name : Dolby Digital
Muxing mode : Header stripping
Codec ID : A_AC3
Duration : 1 h 46 min
Bit rate mode : Constant
Bit rate : 640 kb/s
Channel(s) : 6 channels
Channel layout : L R C LFE Ls Rs
Sampling rate : 48.0 kHz
Frame rate : 31.250 FPS (1536 SPF)
Compression mode : Lossy
Stream size : 490 MiB (9%)
Title : AC3 Ita 5.1 Ch
Language : Italian
Service kind : Complete Main
Default : Yes
Forced : Yes

Text #1
ID : 5
Format : UTF-8
Codec ID : S_TEXT/UTF8
Codec ID/Info : UTF-8 Plain Text
Title : Subs Ita N.U.
Language : Italian
Default : No
Forced : No

Text #2
ID : 6
Format : UTF-8
Codec ID : S_TEXT/UTF8
Codec ID/Info : UTF-8 Plain Text
Title : FORCED Ita
Language : Italian
Default : Yes
Forced : Yes

Menu
00:00:00.000 : en:00:00:00.000
00:07:40.125 : en:00:07:40.125
00:11:52.875 : en:00:11:52.875
00:15:00.917 : en:00:15:00.917
00:20:44.750 : en:00:20:44.750
00:25:37.000 : en:00:25:37.000
00:30:16.750 : en:00:30:16.750
00:36:59.250 : en:00:36:59.250
00:44:59.208 : en:00:44:59.208
00:47:33.917 : en:00:47:33.917
00:56:36.917 : en:00:56:36.917
01:03:02.750 : en:01:03:02.750
01:06:19.958 : en:01:06:19.958
01:14:51.292 : en:01:14:51.292
01:23:39.417 : en:01:23:39.417
01:28:46.250 : en:01:28:46.250
01:34:28.792 : en:01:34:28.792
01:40:21.833 : en:01:40:21.833



DOWNLOAD LINK FOLDER INTERSCAMBIABILI

EASYBYTEZ


** Contenuto Nascosto: Schiaccia il bottone RINGRAZIA per visualizzare i link **




OPPURE


 
** Contenuto Nascosto: Schiaccia il bottone RINGRAZIA per visualizzare i link **






Pass se richiesta:THEKING


Per scompattare i pacchetti usare Winrar 5

I File rev servono come recupero di informazioni nel caso winrar vi dica che avete un archivio danneggiato o file mancanti e non riesce quindi a scompattarli.A questo punto usate i file rev. "Ma prima cancellare i file corrotti". Una volta cancellati schiacciare su uno dei rev "preferibilmente il rev 1 e vi correggerà questo errore potendo così scompattare senza dover riscaricare il tutto nuovamente.