etneo ha segnalato un messaggio.

Motivo:
http://www.keeplinks.eu/p6/574b2f8a4a76b

il mio nipotino vorrebbe vedere questo film, ha rotto il dvd …..

Messaggio: La Principessa e il Ranocchio (2009) BDRip 720p HEVC ITA ENG AC3 ITA ENG Sub PirateMKV
Forum: HEVC 720p x265
Moderatori Assegnati: @N/D

Scritto da: PirateMKV
Contenuto Originale:





Titolo: The Princess and the Frog
Nazione: USA
Anno: 2009
Genere: Animation, Family, Fantasy
Durata: 97 min
Regia: Ron Clements, John Musker
Cast: Anika Noni Rose, Bruno Campos, Keith David, Michael-Leon Wooley


New Orleans, età del jazz. Tiana lavora sodo e senza sosta per accumulare il denaro che servirà a realizzare il sogno che lei e il padre formularono quando era bambina: un ristorante, con ottimo cibo e ottima musica. Intanto il principe reale Naveen sbarca in Lousiana e le ragazze della città impazziscono per vederlo, ma lui si lascia presto abbindolare dal malvagio Facilier, dedito alle arti oscure, e finisce trasformato in un ranocchio. Scambiando la bella Tiana per una principessa, nel corso di una festa da ballo, implora da lei il bacio che, secondo le favole, lo farà tornare umano ma accade l'imprevisto ed è Tiana a trasformarsi a sua volta in una graziosissima, viscida ranocchia.

Nome Versione: PirateMKV
Fonte Video: BluRay
Fonte Audio: BluRay



 






 

General
Unique ID : 231362418277617831111486524460890629151 (0xAE0EC7EB7735B942AC752F4F30A8A41F)
Complete name : C:\Users\Administrator\Downloads\La Principessa e il ranocchio\La Principessa e il Ranocchio (2009) BDRip 720p HEVC ITA ENG AC3 ITA ENG Sub PirateMKV.mkv
Format : Matroska
Format version : Version 4 / Version 2
File size : 2.46 GiB
Duration : 1h 37mn
Overall bit rate : 3 610 Kbps
Movie name : La Principessa e il Ranocchio (2009) - PirateMKV
Encoded date : UTC 2016-05-29 17:09:37
Writing application : mkvmerge v9.1.0 ('Little Earthquakes') 64bit
Writing library : libebml v1.3.3 libmatroska v1.4.4 / Lavf57.37.100

Video
ID : 1
Format : HEVC
Format/Info : High Efficiency Video Coding
Format profile : [email protected]@Main
Codec ID : V_MPEGH/ISO/HEVC
Duration : 1h 37mn
Bit rate : 2 327 Kbps
Width : 1 280 pixels
Height : 720 pixels
Display aspect ratio : 16:9
Frame rate mode : Constant
Frame rate : 23.976 (24000/1001) fps
Color space : YUV
Chroma subsampling : 4:2:0
Bit depth : 8 bits
Bits/(Pixel*Frame) : 0.105
Stream size : 1.58 GiB (64%)
Writing library : x265 1.9 183-4723933fdec9:[Windows][GCC 5.3.0][64 bit] 8bit
Encoding settings : wpp / ctu=64 / min-cu-size=8 / max-tu-size=32 / tu-intra-depth=3 / tu-inter-depth=3 / me=2 / subme=4 / merange=57 / no-rect / no-amp / max-merge=3 / temporal-mvp / no-early-skip / no-recursion-skip / rdpenalty=0 / no-tskip / no-tskip-fast / strong-intra-smoothing / no-lossless / no-cu-lossless / no-constrained-intra / fast-intra / open-gop / no-temporal-layers / interlace=0 / keyint=250 / min-keyint=23 / scenecut=40 / rc-lookahead=40 / lookahead-slices=0 / bframes=8 / bframe-bias=0 / b-adapt=2 / ref=5 / limit-refs=3 / limit-modes / weightp / weightb / aq-mode=3 / qg-size=32 / aq-strength=2.00 / cbqpoffs=0 / crqpoffs=0 / rd=4 / psy-rd=1.00 / rdoq-level=0 / psy-rdoq=0.00 / no-rd-refine / signhide / deblock=-1:-1 / sao / no-sao-non-deblock / b-pyramid / no-cutree / no-intra-refresh / rc=crf / crf=21.4 / qcomp=0.60 / qpmin=0 / qpmax=51 / qpstep=4 / vbv-maxrate=12000 / vbv-bufsize=12000 / crf-max=0.0 / ipratio=1.40 / pbratio=1.30
Language : English
Default : Yes
Forced : No
Color range : Limited
Matrix coefficients : BT.709

Audio #1
ID : 2
Format : AC-3
Format/Info : Audio Coding 3
Mode extension : CM (complete main)
Format settings, Endianness : Big
Codec ID : A_AC3
Duration : 1h 37mn
Bit rate mode : Constant
Bit rate : 640 Kbps
Channel(s) : 6 channels
Channel positions : Front: L C R, Side: L R, LFE
Sampling rate : 48.0 KHz
Frame rate : 31.250 fps (1536 spf)
Compression mode : Lossy
Stream size : 446 MiB (18%)
Title : AC3 5.1
Language : Italian
Default : Yes
Forced : No

Audio #2
ID : 3
Format : AC-3
Format/Info : Audio Coding 3
Mode extension : CM (complete main)
Format settings, Endianness : Big
Codec ID : A_AC3
Duration : 1h 37mn
Bit rate mode : Constant
Bit rate : 640 Kbps
Channel(s) : 6 channels
Channel positions : Front: L C R, Side: L R, LFE
Sampling rate : 48.0 KHz
Frame rate : 31.250 fps (1536 spf)
Compression mode : Lossy
Stream size : 446 MiB (18%)
Title : AC3 5.1
Language : English
Default : No
Forced : No

Text #1
ID : 4
Format : UTF-8
Codec ID : S_TEXT/UTF8
Codec ID/Info : UTF-8 Plain Text
Duration : 1h 29mn
Bit rate : 68 bps
Count of elements : 1318
Stream size : 45.0 KiB (0%)
Title : Normal
Language : Italian
Default : No
Forced : No

Text #2
ID : 5
Format : UTF-8
Codec ID : S_TEXT/UTF8
Codec ID/Info : UTF-8 Plain Text
Duration : 1h 29mn
Bit rate : 72 bps
Count of elements : 1310
Stream size : 47.5 KiB (0%)
Title : Normal
Language : English
Default : No
Forced : No

Text #3
ID : 6
Format : UTF-8
Codec ID : S_TEXT/UTF8
Codec ID/Info : UTF-8 Plain Text
Duration : 1h 33mn
Bit rate : 79 bps
Count of elements : 1666
Stream size : 54.2 KiB (0%)
Title : SDH
Language : English
Default : No
Forced : No

Menu
00:00:00.000 : en:00:00:00.000
00:03:57.779 : en:00:03:57.779
00:07:16.436 : en:00:07:16.436
00:12:05.391 : en:00:12:05.391
00:17:45.481 : en:00:17:45.481
00:22:04.698 : en:00:22:04.698
00:26:47.189 : en:00:26:47.189
00:31:22.047 : en:00:31:22.047
00:35:49.105 : en:00:35:49.105
00:41:11.803 : en:00:41:11.803
00:44:30.584 : en:00:44:30.584
00:50:37.868 : en:00:50:37.868
00:54:52.956 : en:00:54:52.956
01:00:08.772 : en:01:00:08.772
01:07:21.496 : en:01:07:21.496
01:13:34.535 : en:01:13:34.535
01:21:50.697 : en:01:21:50.697
01:24:23.767 : en:01:24:23.767
01:27:06.638 : en:01:27:06.638
01:30:28.423 : en:01:30:28.423






** Contenuto Nascosto: Schiaccia il bottone RINGRAZIA per visualizzare i link **


Password Archivi: W9uf3209bh0Ped970N